Details for this torrent 

Warning! Use a VPN When Downloading Torrents!
Your Country is . IP Address is
Your Internet Provider can see when you download torrents! Hide your IP ADDRESS with a VPN!
We strongly recommend Trust.Zone VPN to hide your torrenting. It's FREE!
HIDE ME NOW

For Latest Updates Join Us On Reddit And Follow On Twitter
please report any problem and contact us at [email protected]


We Need Your Help Please Donate And Support US

The.Noite.2019.10.09.720p.WEB.x264-Skylane77
Type:
Video > HD - TV shows
Files:
1
Size:
505.74 MiB (530309135 Bytes)
Spoken language(s):
Portugese
Texted language(s):
Portugese
Uploaded:
2019-10-11 01:21:52 GMT
By:
beechbaron77
Seeders:
3
Leechers:
0
Comments
0  

Info Hash:
213FCEC5AF4648C4C2BFD3C1D760BCB738EC956C




(Problems with magnets links are fixed by upgrading your torrent client!)
Eduardo Costa

Entrevista com o cantor de música sertaneja Edson Vander da Costa Batista, mais conhecido como Eduardo Costa; Murilo Couto aprende a atirar com o "Instrutor Zero"; Eduardo Costa canta "Coração Pirata".
 
https://postimg.cc/CRThrvnv

--
Video
ID: 1
Format: AVC
Format/Info: Advanced Video Codec
Format profile: [email protected]
Format settings: CABAC / 9 Ref Frames
Format settings, CABAC: Yes
Format settings, Reference frames: 9 frames
Codec ID: avc1
Codec ID/Info: Advanced Video Coding
Duration: 49 min 26 s
Bit rate: 1 293 kb/s
Width: 1 280 pixels
Height: 720 pixels
Display aspect ratio: 16:9
Frame rate mode: Variable
Frame rate: 29.970 FPS
Minimum frame rate: 15.000 FPS
Maximum frame rate: 30.000 FPS
Color space: YUV
Chroma subsampling: 4:2:0
Bit depth: 8 bits
Scan type: Progressive
Bits/(Pixel*Frame): 0.047
Stream size: 457 MiB (90%)
Writing library: x264 core 157 r2945 72db437
Encoding settings: cabac=1 / ref=9 / deblock=1:0:0 / analyse=0x3:0x133 / me=umh / subme=10 / psy=1 / psy_rd=1.00:0.00 / mixed_ref=1 / me_range=24 / chroma_me=1 / trellis=2 / 8x8dct=1 / cqm=0 / deadzone=21,11 / fast_pskip=1 / chroma_qp_offset=-2 / threads=12 / lookahead_threads=2 / sliced_threads=0 / nr=0 / decimate=1 / interlaced=0 / bluray_compat=0 / constrained_intra=0 / bframes=8 / b_pyramid=2 / b_adapt=2 / b_bias=0 / direct=3 / weightb=1 / open_gop=0 / weightp=2 / keyint=250 / keyint_min=25 / scenecut=40 / intra_refresh=0 / rc_lookahead=60 / rc=crf / mbtree=1 / crf=25.0 / qcomp=0.60 / qpmin=0 / qpmax=69 / qpstep=4 / ip_ratio=1.40 / aq=1:1.00
Codec configuration box: avcC

Audio
ID: 2
Format: AAC LC
Format/Info: Advanced Audio Codec Low Complexity
Codec ID: mp4a-40-2
Duration: 49 min 26 s
Bit rate mode: Variable
Bit rate: 128 kb/s
Maximum bit rate: 132 kb/s
Channel(s): 2 channels
Channel layout: L R
Sampling rate: 48.0 kHz
Frame rate: 46.875 FPS (1024 SPF)
Compression mode: Lossy
Stream size: 45.4 MiB (9%)
Default: Yes
Alternate group: 1